Скрипты визиток / Пресс за 8 минут скачать видео бесплатно

Библиотека ТУТ

Каталог обучающих материалов

Идеальный пресс за 8 минут / 8 minute Abs [1994] DVDRip

Для скачивания торрента необходимо зарегистрироваться или войти на трекер

Пресс за 8 минут скачать видео бесплатно 1

Идеальный пресс за 8 минут / 8 minute Abs [1994] DVDRip

Сообщение Nik " 16 мар 2013, 06:04

1496 Кбит/сек, 29,917 кадр/сек
Размер кадра: 514 x 360
Аудиокодек: MP3
Битрейт аудио: 64.0 Kbps, CBR, 44.1 KHz, 2 ch.

Описание:
Видеоматериал показывает как всего за 8 минут в день нужно загрузить мышцы живота, чтобы был отличный результат (а восемь минут выкроить в день может каждый). Готовим торс к лету.

Перевод: Любителький (одноголосый)

Видео
Идентификатор : 0
Формат : MPEG-4 Visual
Идентификатор кодека : MP42
Идентификатор кодека/Информация : Microsoft MPEG-4 v2 (pre-standard)
Идентификатор кодека/Подсказка : Microsoft
Продолжительность : 8 м. 38 с.
Битрейт : 1496 Кбит/сек
Ширина : 514 пикс.
Высота : 360 пикс.
Соотношение сторон : 1,428
Частота кадров : 29,917 кадр/сек
Метод сжатия : С потерями
Бит/(Пиксели*Кадры) : 0.270
Размер потока : 92,5 Мбайт (95%)

Аудио
Идентификатор : 1
Формат : MPEG Audio
Версия формата : Version 1
Профиль формата : Layer 3
Режим : Joint stereo
Расширение режима : MS Stereo
Идентификатор кодека : 55
Идентификатор кодека/Подсказка : MP3
Продолжительность : 8 м. 39 с.
Вид битрейта : Постоянный
Битрейт : 64,0 Кбит/сек
Каналы : 2 канала
Частота : 44,1 КГц
Метод сжатия : С потерями
Размер потока : 3,96 Мбайт (4%)
Выравнивание : Соединение по промежуткам
Продолжительность промежутка : 26 мс. (0,78 видеокадр)

Скачать фильм шаг вперед 1 в mp4
Здесь курят скачать в mp4
Как скачать бесплатно любое видео
Скачать музыку mp4 на айфон
Скачать видео бесплатно про автомобили