Скрипты рекламных сайтов / Скачать видео бесплатно а дюмин

Скачать видео бесплатно а дюмин

Скачать видео бесплатно а дюмин 1
Формат: DVD5, DVD Video, MPEG2, AC3
Песня: Лучшие песни: Видеоальбом
Жанр: Shanson
Продолжительность: 00:48:50
Год выпуска: 2014

Видео: 720х480 (NTSC, 16:9), 23,976 fps, MPEG-2.

5086 kbps avg, 0.614 bit/pixel
Аудио: 48.0 КГц, Audio Coding 3, 2 ch, 192 kbps

Доп. информация: Все самые лучшие песни Александра Дюмина в одном видеоальбоме! Материал взят с канала "Золото Шансона"

Треклист:
1. Зараза брось!
2. Мать
3. Люберцы
4. Партаки
5. Шпана
6. Фотографии друзей
7. Цветы из камня
8. Пацаны
9. Тополя
10.Времечко
11.Волчица
12.Пили водочку
13.Сибиряк
14.Человек с гитарой

Общее
Полное имя : C:Tfiledumin_luchshee_[tfile.me]VIDEO_TSVTS_01_1.VOB
Формат : MPEG-PS
Размер файла : 1024 Мбайт
Продолжительность : 26 м.
Режим общего битрейта : Переменный
Общий поток : 5385 Кбит/сек

Видео
Идентификатор : 224 (0xE0)
Формат : MPEG Video
Версия формата : Version 2
Профиль формата :
Параметр BVOP формата : Да
Параметр матрицы формата : По умолчанию
Параметр GOP формата : M=3, N=12
Продолжительность : 26 м.
Вид битрейта : Переменный
Битрейт : 5086 Кбит/сек
Максимальный битрейт : 9008 Кбит/сек
Ширина : 720 пикселей
Высота : 480 пикселей
Соотношение сторон : 16:9
Частота кадров : 23,976 кадра/сек
Стандарт вещания : NTSC
Цветовое пространство : YUV
Субдискретизация насыщенности : 4:2:0
Битовая глубина : 8 бит
Тип развёртки : Прогрессивная
Порядок развёртки : 2:3 Pulldown
Метод сжатия : С потерями
Бит/(Пиксели*Кадры) : 0.614
Временной код первого кадра : 00:00:00;00
Оригинал временного кода : Group of pictures header
GOP, открыто/закрыто : Закрыто
Размер потока : 967 Мбайт (94%)

Аудио
Идентификатор : 189 (0xBD)-128 (0x80)
Формат : AC-3
Формат/Информация : Audio Coding 3
Расширение режима : CM (complete main)
Параметр Endianness формата : Big
Режим смешивания : DVD-Video
Продолжительность : 26 м.
Вид битрейта : Постоянный
Битрейт : 192 Кбит/сек
Каналы : 2 канала
Расположение каналов : Front: L R
Частота : 48,0 КГц
Битовая глубина : 16 бит
Метод сжатия : С потерями
Размер потока : 36,5 Мбайт (4%)

Звездные войны эпизод 3 скачать mp4
Гран торино скачать торрент mp4
Видео приколы смешные смотреть бесплатно
Сборники музыки скачать бесплатно с предварительным прослушиванием
Скачать фильмы для планшета торрент mp4