Скрипты рекламных сайтов / Скачать в mp4 семнадцать мгновений весны

Скачать в mp4 семнадцать мгновений весны

Гость " 25 окт 2014, 23:21

  • Скачать в mp4 семнадцать мгновений весны 1

Год выпуска: 1973
Жанр: драма, приключения, военный, история
Страна: СССР

Режиссер: Татьяна Лиознова
Актеры: Вячеслав Тихонов, Евгений Кузнецов, Михаил Жарковский, Фриц Дитц, Вильгельм Бурмайер, Николай Прокопович, Юрий Визбор, Олег Табаков, Константин Желдин, Эмилия Мильтон, Ростислав Плятт, Леонид Броневой, Петр Чернов, Василий Лановой, Станислав Коренев, Сергей Юдин, Виктор Головин, Юрий Заев, Отто Мелиес, Леонид Куравлев, Александр Крюков, Владимир Смирнов, Владимир Рудый, Евгений Евстигнеев, Виктор Щеглов, Николай Гриценко, Юрий Катин-Ярцев, Екатерина Градова, Евгений Гуров, Ольга Сошникова Описание фильма:
Советский разведчик Максим Исаев под видом штандартенфюрера СС Штирлица долгие годы работает в политической разведке фашистской Германии. В конце февраля 1945 года он получает из Центра невероятно трудное задание узнать подробности тайных переговоров немцев и союзников. Положение осложняется тем, что его деятельность начинает интересовать Гестапо. Нисколько не легче и от того, что радистка Кэт, обеспечивающая связь с Москвой должна скоро рожать, а вместо умершего помощника Плейшнера Штирлиц вынужден привлечь для работы его родного брата, которого лишь с большой натяжкой можно назвать тайным агентом. В дальнейшем неприятности начинают сыпаться одна за другой, и уже не только операция находится на грани срыва, но и самому Штирлицу грозит разоблачение.
Дата мировой премьеры: 11 августа 1973
Дата выхода DVD релиза: 1 сентября 2009, "Lizard Cinema Trade" Продолжительность: 12х

00:70:00 серия
Перевод: Оригинальный

Качество: DVDRip
Формат: MP4
Видео: MPEG-4 AVC/H.263, 176х144.

200 Кбит/сек
Аудио: AAC, 2 канала, 110 Кбит/сек

Полное имя : F:\Раздел Мобильное видео\17 мгновений весты\17-01.mp4
Формат : MPEG-4
Профиль формата : Base Media
Идентификатор кодека : isom
Размер файла : 154 Мбайт
Продолжительность : 1 ч. 8 м.
Режим общего битрейта : Переменный
Общий поток : 314 Кбит/сек
Дата кодирования : UTC 2011-11-04 17:49:15
Дата пометки : UTC 2011-11-04 17:49:15
Программа кодирования : Lavf51.12.1

Видео
Идентификатор : 1
Формат : MPEG-4 Visual
Профиль формата :
Параметр BVOP формата : Нет
Параметр QPel формата : Нет
Параметр GMC формата : Без точки перехода
Параметр матрицы формата : Default (H.263)
Идентификатор кодека : 20
Продолжительность : 1 ч. 8 м.
Битрейт : 200 Кбит/сек
Ширина : 176 пикселей
Высота : 144 пикселя
Соотношение сторон : 1,222
Режим частоты кадров : Постоянный
Частота кадров : 25,000 кадров/сек
Цветовое пространство : YUV
Субдискретизация насыщенности : 4:2:0
Битовая глубина : 8 бит
Тип развёртки : Прогрессивная
Метод сжатия : С потерями
Бит/(Пиксели*Кадры) : 0.316
Размер потока : 98,4 Мбайт (64%)
Библиотека кодирования : Lavc51.40.4
Дата кодирования : UTC 2011-11-04 17:49:15
Дата пометки : UTC 2011-11-04 17:49:15

Аудио
Идентификатор : 2
Формат : AAC
Формат/Информация : Advanced Audio Codec
Профиль формата : LC
Идентификатор кодека : 40
Продолжительность : 1 ч. 8 м.
Вид битрейта : Переменный
Битрейт : 110 Кбит/сек
Каналы : 2 канала
Расположение каналов : Front: L R
Частота : 32,0 КГц
Метод сжатия : С потерями
Размер потока : 54,2 Мбайт (35%)
Дата кодирования : UTC 2011-11-04 17:49:15
Дата пометки : UTC 2011-11-04 17:49:15

Программы для расчета силовых трансформаторов скачать бесплатно
Фото приколы смотреть бесплатно видео
Скачать сумерки 5 mp4 скачать
Охота на выдру видео смотреть бесплатно
Видео онлайн бесплатно про любовь мелодрамы