Скрипты рекламных сайтов / Скачать стражи галактики скачать торрент mp4

Стражи Галактики / Guardians of the Galaxy

Фильм Стражи Галактики / Guardians of the Galaxy скачать бесплатно в професcиональной озвучке или посмотреть онлайн, чтобы начать просмотр нужно нажать на кнопку в плеере и спустя несколько секунд воспроизведение фильма начнется в хорошем HD (High-Definition) качестве 720p или 1080p. Напомним, что посмотреть онлайн вы можете не только на компьютере, но и на андроид (Android), iPhone и iPad. Приятного просмотра!

Скачать стражи галактики скачать торрент mp4 1

Стражи Галактики / Guardians of the Galaxy скачать бесплатно или смотреть онлайн

Отважному путешественнику Питеру Квиллу попадает в руки таинственный артефакт, принадлежащий могущественному и безжалостному злодею Ронану, строящему коварные планы по захвату Вселенной. Питер оказывается в центре межгалактической охоты, где жертва - он сам.

Единственный способ спасти свою жизнь - объединиться с четверкой нелюдимых изгоев: воинственным енотом по кличке Ракета, человекоподобным деревом Грутом, смертельно опасной Гаморой и одержимым жаждой мести Драксом, также известным как Разрушитель. Когда Квилл понимает, какой силой обладает украденный артефакт и какую опасность он представляет для вселенной, одиночка пойдет на все, чтобы сплотить случайных союзников для решающей битвы за судьбу галактики.

Возраст: зрителям, достигшим 12 лет
Продолжительность: 121 мин. / 02:01

Слоган: "Мстители спасают лишь Землю бренную, а эти ребята спасают Вселенную"
Роли дублировали: Андрей Зайцев, Мария Цветкова-Овсянникова, Максим Сергеев, Сергей Куницкий, Вин Дизель
Сценарий: Джеймс Ганн, Николь Перлман, Дэн Абнетт
Продюсер: Виктория Алонсо, Джэми Кристофер, Кевин Файги
Оператор: Бен Дэвис
Композитор: Тайлер Бейтс
Художник: Мэттью Бродерик, Рави Бансал, Чарльз Вуд
Монтаж: Крэйг Вуд, Фред Раскин, Хьюз Уинборн
Бюджет: $170 000 000
Сборы в США: $333 176 600
Сборы в мире: + $440 135 799 = $773 312 399
Сборы в России: $37 881 775

Премьера (мир): 21 июля 2014
Премьера (РФ): 31 июля 2014, "WDSSPR" 3D

Релиз на DVD: 2 декабря 2014, "Уолт Дисней Компани СНГ"
Релиз на Blu-Ray: 2 декабря 2014, "Уолт Дисней Компани СНГ"

Зрители: Россия - 5.31 млн
Рейтинг MPAA: детям до 13 лет просмотр не желателен

Скачать стражи галактики скачать торрент mp4 2Скачать стражи галактики скачать торрент mp4 3Скачать стражи галактики скачать торрент mp4 4Скачать стражи галактики скачать торрент mp4 5Скачать стражи галактики скачать торрент mp4 6Скачать стражи галактики скачать торрент mp4 7

На нашем сайте имеется возможность смотреть фильмы онлайн в HD (High-Definition) качестве, для этого воспользуйтесь переключателем качества видео в нижнем правом углу плеера. Обратите внимание на то, что чем выше будет качество видео, тем больше времени будет занимать загрузка видео и увеличится количество передаваемого трафика.

Скачать стражи галактики скачать торрент mp4 8

Дата Название раздачи (ссылка) Размер Скачали
17 февраля 2016 12:42 Стражи Галактики / Guardians of the Galaxy (2014) BDRip 720p от HQCLUB | IMAX Edition | Лицензия.torrent

7915 kbps avg, 0.358 bit/pixel
Аудио#1: 48 kHz/16-bit, AC3 Dolby Digital, 3/2 (L,C,R,l,r) + LFE ch.

640 kbps avg | RUS, Blu-ray EUR
Аудио#2: 48 kHz/16-bit, AC3 Dolby Digital, 3/2 (L,C,R,l,r) + LFE ch.

640 kbps avg | RUS, OMICRON
Аудио#3: 48 kHz/16-bit, AC3 Dolby Digital, 3/2 (L,C,R,l,r) + LFE ch.

640 kbps avg | RUS, Y.Zhivov
Аудио#4: 48 kHz/16-bit, AC3 Dolby Digital, 3/2 (L,C,R,l,r) + LFE ch.

640 kbps avg | RUS, Y.Serbin
Аудио#5: 48 kHz/16-bit, AC3 Dolby Digital, 3/2 (L,C,R,l,r) + LFE ch.

640 kbps avg | RUS, А.Matveev
Аудио#6: 48 kHz/16-bit, AC3 Dolby Digital, 3/2 (L,C,R,l,r) + LFE ch.

640 kbps avg | RUS, А.Karpovsky
Аудио#7: 48 kHz/16-bit, AC3 Dolby Digital, 3/2 (L,C,R,l,r) + LFE ch.

640 kbps avg | RUS, D.Esarev
Аудио#8: 48 kHz/16-bit, AC3 Dolby Digital, 3/2 (L,C,R,l,r) + LFE ch.

640 kbps avg | UKR, Disney / Buena Vista
Аудио#9: 48 kHz/16-bit, AC3 Dolby Digital, 3/2 (L,C,R,l,r) + LFE ch.

640 kbps avg | ENG
Видео: Идентификатор : 1 Формат : AVC Формат/Информация : Advanced V >Аудио #1: Идентификатор : 2 Формат : AC-3 Формат/Информация : Audio Coding 3 Расширение режима : CM (complete main) Параметр Endianness формата : Big Идентификатор кодека : A_AC3 Продолжительность : 2 ч. 1 м. Вид битрейта : Постоянный Битрейт : 640 Кбит/сек Каналы : 6 каналов Расположение каналов : Front: L C R, Side: L R, LFE Частота : 48,0 КГц Битовая глубина : 16 бит Метод сжатия : С потерями Размер потока : 555 Мбайт (5%) Заголовок : BD EUR Язык : Russian Default : Да Forced : Нет
Аудио #2: Идентификатор : 3 Формат : AC-3 Формат/Информация : Audio Coding 3 Расширение режима : CM (complete main) Параметр Endianness формата : Big Идентификатор кодека : A_AC3 Продолжительность : 2 ч. 1 м. Вид битрейта : Постоянный Битрейт : 640 Кбит/сек Каналы : 6 каналов Расположение каналов : Front: L C R, Side: L R, LFE Частота : 48,0 КГц Битовая глубина : 16 бит Метод сжатия : С потерями Размер потока : 555 Мбайт (5%) Заголовок : MVO [Omicron] Язык : Russian Default : Нет Forced : Нет
Аудио #3: Идентификатор : 4 Формат : AC-3 Формат/Информация : Audio Coding 3 Расширение режима : CM (complete main) Параметр Endianness формата : Big Идентификатор кодека : A_AC3 Продолжительность : 2 ч. 1 м. Вид битрейта : Постоянный Битрейт : 640 Кбит/сек Каналы : 6 каналов Расположение каналов : Front: L C R, Side: L R, LFE Частота : 48,0 КГц Битовая глубина : 16 бит Метод сжатия : С потерями Размер потока : 555 Мбайт (5%) Заголовок : AVO [Zhivov] Язык : Russian Default : Нет Forced : Нет
Аудио #4: Идентификатор : 5 Формат : AC-3 Формат/Информация : Audio Coding 3 Расширение режима : CM (complete main) Параметр Endianness формата : Big Идентификатор кодека : A_AC3 Продолжительность : 2 ч. 1 м. Вид битрейта : Постоянный Битрейт : 640 Кбит/сек Каналы : 6 каналов Расположение каналов : Front: L C R, Side: L R, LFE Частота : 48,0 КГц Битовая глубина : 16 бит Метод сжатия : С потерями Размер потока : 555 Мбайт (5%) Заголовок : AVO [Serbin] Язык : Russian Default : Нет Forced : Нет
Аудио #5: Идентификатор : 6 Формат : AC-3 Формат/Информация : Audio Coding 3 Расширение режима : CM (complete main) Параметр Endianness формата : Big Идентификатор кодека : A_AC3 Продолжительность : 2 ч. 1 м. Вид битрейта : Постоянный Битрейт : 640 Кбит/сек Каналы : 6 каналов Расположение каналов : Front: L C R, Side: L R, LFE Частота : 48,0 КГц Битовая глубина : 16 бит Метод сжатия : С потерями Размер потока : 555 Мбайт (5%) Заголовок : AVO [Matveev] Язык : Russian Default : Нет Forced : Нет
Аудио #6: Идентификатор : 7 Формат : AC-3 Формат/Информация : Audio Coding 3 Расширение режима : CM (complete main) Параметр Endianness формата : Big Идентификатор кодека : A_AC3 Продолжительность : 2 ч. 1 м. Вид битрейта : Постоянный Битрейт : 640 Кбит/сек Каналы : 6 каналов Расположение каналов : Front: L C R, Side: L R, LFE Частота : 48,0 КГц Битовая глубина : 16 бит Метод сжатия : С потерями Размер потока : 555 Мбайт (5%) Заголовок : AVO [Karpovsky] Язык : Russian Default : Нет Forced : Нет
Аудио #7: Идентификатор : 8 Формат : AC-3 Формат/Информация : Audio Coding 3 Расширение режима : CM (complete main) Параметр Endianness формата : Big Идентификатор кодека : A_AC3 Продолжительность : 2 ч. 1 м. Вид битрейта : Постоянный Битрейт : 640 Кбит/сек Каналы : 6 каналов Расположение каналов : Front: L C R, Side: L R, LFE Частота : 48,0 КГц Битовая глубина : 16 бит Метод сжатия : С потерями Размер потока : 555 Мбайт (5%) Заголовок : AVO [Esarev] Язык : Russian Default : Нет Forced : Нет
Аудио #8: Идентификатор : 9 Формат : AC-3 Формат/Информация : Audio Coding 3 Расширение режима : CM (complete main) Параметр Endianness формата : Big Идентификатор кодека : A_AC3 Продолжительность : 2 ч. 1 м. Вид битрейта : Постоянный Битрейт : 640 Кбит/сек Каналы : 6 каналов Расположение каналов : Front: L C R, Side: L R, LFE Частота : 48,0 КГц Битовая глубина : 16 бит Метод сжатия : С потерями Размер потока : 555 Мбайт (5%) Заголовок : Ukrainian Язык : Ukrainian Default : Нет Forced : Нет
Аудио #9: Идентификатор : 10 Формат : AC-3 Формат/Информация : Audio Coding 3 Расширение режима : CM (complete main) Параметр Endianness формата : Big Идентификатор кодека : A_AC3 Продолжительность : 2 ч. 1 м. Вид битрейта : Постоянный Битрейт : 640 Кбит/сек Каналы : 6 каналов Расположение каналов : Front: L C R, Side: L R, LFE Частота : 48,0 КГц Битовая глубина : 16 бит Метод сжатия : С потерями Размер потока : 555 Мбайт (5%) Заголовок : Original Язык : English Default : Нет Forced : Нет

11,55 Gb 97 17 февраля 2016 12:42 Стражи Галактики / Guardians of the Galaxy (2014) BDRip 1080p от Leonardo and Scarabey | IMAX Edition | Лицензия.torrent 7,49 Gb 254 17 февраля 2016 12:42 Стражи Галактики / Guardians of the Galaxy (2014) BDRip-AVC от MediaClub | IMAX Edition | A.torrent 3,38 Gb 156 17 февраля 2016 12:42 Стражи Галактики / Guardians of the Galaxy (2014) BDRip 720p от HELLYWOOD | IMAX | Лицензия.torrent

7751 kbps avg
Аудио #1: 48 kHz, AC3 Dolby Digital, 3/2 (L,C,R,l,r) + LFE ch.

640 kbps|DUB, Blu-ray EUR|
Аудио #2: 48 kHz, AC3 Dolby Digital, 3/2 (L,C,R,l,r) + LFE ch.

640 kbps|MVO, "Омикрон"|
Аудио #3: 48 kHz, AC3 Dolby Digital, 3/2 (L,C,R,l,r) + LFE ch.

640 kbps|AVO, Ю.Сербин|
Аудио #4: 48 kHz, AC3 Dolby Digital, 3/2 (L,C,R,l,r) + LFE ch.

640 kbps|AVO, Ю.Живов|
Аудио #5: 48 kHz, AC3 Dolby Digital, 3/2 (L,C,R,l,r) + LFE ch.

640 kbps|AVO, А.Карповский|
Аудио #6: 48 kHz, AC3 Dolby Digital, 3/2 (L,C,R,l,r) + LFE ch.

640 kbps|AVO, Д.Есарев|
Аудио #7: 48 kHz, AC3 Dolby Digital, 3/2 (L,C,R,l,r) + LFE ch.

640 kbps|AVO, А.Матвеев|
Аудио #8: 48 kHz, AC3 Dolby Digital, 3/2 (L,C,R,l,r) + LFE ch.

640 kbps|UKR-DUB, Disney / Buena Vista|
Аудио #9: 48 kHz, AC3 Dolby Digital, 3/2 (L,C,R,l,r) + LFE ch.

11,66 Gb 13 17 февраля 2016 12:42 Стражи Галактики / Guardians of the Galaxy (2014) BDRip 1080p | 3D-Video | HSBS | Лицензия | 60 fps.torrent 14,97 Gb 44 17 февраля 2016 12:42 Стражи Галактики / Guardians of the Galaxy (2014) HDRip-AVC | IMAX Edition | A.torrent

1514 kbps avg, 0.14 bit/pixel
Аудио 1: 48 kHz, AAC-LC, 3/2 (L,C,R,l,r) + LFE ch.

212 kbpsЖивов
Аудио 2: 48 kHz, AAC-LC, 3/2 (L,C,R,l,r) + LFE ch.

212 kbpsСербин
Аудио 3: 48 kHz, AAC-LC, 3/2 (L,C,R,l,r) + LFE ch.

212 kbpsКарповский
Аудио 4: 48 kHz, AAC-LC, 3/2 (L,C,R,l,r) + LFE ch.

212 kbpsЕсарев
Аудио 5: 48 kHz, AAC-LC, 3/2 (L,C,R,l,r) + LFE ch.

212 kbpsМатвеев
Субтитры: нет
Видео: Идентификатор : 1 Формат : AVC Формат/Информация : Advanced V ) 64bit built on Jul 27 2014 13:06:55 _STATISTICS_WRITING_DATE_UTC : 2015-02-15 12:40:56 _STATISTICS_TAGS : BPS DURATION NUMBER_OF_FRAMES NUMBER_OF_BYTES
Аудио #1: Идентификатор : 2 Формат : AAC Формат/Информация : Advanced Audio Codec Профиль формата : HE-AAC / LC Идентификатор кодека : A_AAC Продолжительность : 2 ч. 0 м. Каналы : 6 каналов Расположение каналов : Front: L C R, Side: L R, LFE Частота : 48,0 КГц / 24,0 КГц Метод сжатия : С потерями Заголовок : Zhivov Язык : Russian Default : Да Forced : Нет
Аудио #2: Идентификатор : 3 Формат : AAC Формат/Информация : Advanced Audio Codec Профиль формата : HE-AAC / LC Идентификатор кодека : A_AAC Продолжительность : 2 ч. 0 м. Каналы : 6 каналов Расположение каналов : Front: L C R, Side: L R, LFE Частота : 48,0 КГц / 24,0 КГц Метод сжатия : С потерями Заголовок : Serbin Язык : Russian Default : Нет Forced : Нет
Аудио #3: Идентификатор : 4 Формат : AAC Формат/Информация : Advanced Audio Codec Профиль формата : HE-AAC / LC Идентификатор кодека : A_AAC Продолжительность : 2 ч. 0 м. Каналы : 6 каналов Расположение каналов : Front: L C R, Side: L R, LFE Частота : 48,0 КГц / 24,0 КГц Метод сжатия : С потерями Заголовок : Karpovskij Язык : Russian Default : Нет Forced : Нет
Аудио #4: Идентификатор : 5 Формат : AAC Формат/Информация : Advanced Audio Codec Профиль формата : HE-AAC / LC Идентификатор кодека : A_AAC Продолжительность : 2 ч. 0 м. Каналы : 6 каналов Расположение каналов : Front: L C R, Side: L R, LFE Частота : 48,0 КГц / 24,0 КГц Метод сжатия : С потерями Заголовок : Esarev Язык : Russian Default : Нет Forced : Нет
Аудио #5: Идентификатор : 6 Формат : AAC Формат/Информация : Advanced Audio Codec Профиль формата : HE-AAC / LC Идентификатор кодека : A_AAC Продолжительность : 2 ч. 0 м. Каналы : 6 каналов Расположение каналов : Front: L C R, Side: L R, LFE Частота : 48,0 КГц / 24,0 КГц Метод сжатия : С потерями Заголовок : Matveev Язык : Russian Default : Нет Forced : НетСпасибоЗа перевод Ю. Живова большое спасибо пользователям форумов

2,17 Gb 172 17 февраля 2016 12:42 Стражи Галактики / Guardians of the Galaxy (2014) BDRip 1080p от MediaClub | IMAX Edition | D, P, A.torrent 11,62 Gb 29 17 февраля 2016 12:42 Стражи Галактики / Guardians of the Galaxy (2014) BDRip 720p от HQ-ViDEO | IMAX | Лицензия.torrent 8,3 Gb 10 17 февраля 2016 12:42 Стражи Галактики / Guardians of the Galaxy (2014) BDRip 720p от HQ-ViDEO | Лицензия.torrent 6,99 Gb 35 17 февраля 2016 12:42 Стражи Галактики / Guardians of the Galaxy (2014) DVD5 | сжатый.torrent 4,37 Gb 16 17 февраля 2016 12:42 Стражи Галактики / Guardians of the Galaxy (2014) BDRip 720p от NNNB | IMAX | D,P,A.torrent 9,38 Gb 8 17 февраля 2016 12:42 Стражи Галактики / Guardians of the Galaxy (2014) BDRip 1080p от R.G. HD-Films | 3D-Video | HSBS | IMAX | 60 fps.torrent 14,59 Gb 22 17 февраля 2016 12:42 Стражи Галактики / Guardians of the Galaxy (2014) BDRip 1080p от R.G. HD-Films | IMAX | 60 fps.torrent 12,92 Gb 28 17 февраля 2016 12:42 Стражи Галактики / Guardians of the Galaxy (2014) BDRip-AVC от ExKinoRay | IMAX Edition | P, A.torrent 2,76 Gb 67 17 февраля 2016 12:42 Стражи Галактики / Guardians of the Galaxy (2014) BDRip 1080p от HDCLUB | Лицензия.torrent

16.3 Mbps avg
Аудио#4: Russian: 48 kHz, DTS, 3/2 (L,C,R,l,r) + LFE ch.

1536.00 kbps avg |Авторский, Ю.Сербин|
Аудио#5: English: 48 kHz, DTS, 3/2 (L,C,R,l,r) + LFE ch.

1536.00 kbps avg

19,91 Gb 28 17 февраля 2016 12:42 Стражи Галактики / Guardians of the Galaxy (2014) BDRemux 1080p от ExKinoRay | IMAX Edition | D, P, A | Лицензия.torrent 37,09 Gb 47 17 февраля 2016 12:42 Стражи Галактики / Guardians of the Galaxy (2014) DVD9 от New-Team | D | Лицензия.torrent

7391.34 kbps avg
Звук: Русский, английский, французский, казахский DD 5.1 (384Kbps)
Субтитры: Русские, английские, французские, арабские, нидерландские

7,13 Gb 5 17 февраля 2016 12:42 Стражи Галактики / Guardians of the Galaxy (2014) DVD9 от Osnova.torrent

7886 Кбит/сек
Субтитры: русские (перевод надписей), русские (полные), английские (полные)

7,27 Gb 3 17 февраля 2016 12:41 Стражи Галактики / Guardians of the Galaxy (2014) BDRip от New-Team | IMAX | Лицензия.torrent

722 kbps avg, 0.147 bit/pixel
Аудио: 48 kHz, MPEG Layer 3, 2 ch, 128.00 kbps Constant |Дубляж.

742,5 Mb 159 17 февраля 2016 12:41 Стражи Галактики / Guardians of the Galaxy (2014) BDRip-AVC от HELLYWOOD | Лицензия.torrent 1,46 Gb 182 17 февраля 2016 12:41 Стражи Галактики / Guardians of the Galaxy (2014) BDRip 720p от HELLYWOOD | Лицензия.torrent 4,37 Gb 26 17 февраля 2016 12:41 Стражи Галактики / Guardians of the Galaxy (2014) BDRip 720p | IMAX | 60 fps.torrent 5,05 Gb 18 17 февраля 2016 12:41 Стражи Галактики / Guardians of the Galaxy (2014) BDRip от HQCLUB | Лицензия.torrent

2126 kbps avg, 0.41 bit/pixel
Аудио #1: 48 kHz, AC3 Dolby Digital, 3/2 (L,C,R,l,r) + LFE ch.

448.00 kbps avg
Аудио #2: 48 kHz, AC3 Dolby Digital, 3/2 (L,C,R,l,r) + LFE ch.

448.00 kbps avg(отдельно, http)
Аудио #3: 48 kHz, AC3 Dolby Digital, 3/2 (L,C,R,l,r) + LFE ch.

448.00 kbps avg(отдельно, http)

2,18 Gb 124 17 февраля 2016 12:41 Стражи Галактики / Guardians of the Galaxy (2014) BDRip 720p от Neofilm | Лицензия.torrent 4,37 Gb 35 17 февраля 2016 12:41 Стражи Галактики / Guardians of the Galaxy (2014) BDRip-AVC от New-Team | D | Лицензия.torrent 1,46 Gb 145 17 февраля 2016 12:41 Стражи Галактики / Guardians of the Galaxy (2014) BDRip 720p от NNNB | 60 fps.torrent 6,31 Gb 14 17 февраля 2016 12:41 Стражи Галактики / Guardians of the Galaxy (2014) BDRip-AVC от HQCLUB | Лицензия.torrent

2333 kbps avg, 0.176 bit/pixel
Аудио #1: 48 kHz, AC3 Dolby Digital, 3/2 (L,C,R,l,r) + LFE ch.

448 kbps avg (DUB)
Аудио #2: 48 kHz, AC3 Dolby Digital, 3/2 (L,C,R,l,r) + LFE ch.

448 kbps avg (ENG)
Видео: Идентификатор : 1 Формат : AVC Формат/Информация : Advanced V >Аудио #1: Идентификатор : 2 Формат : AC-3 Формат/Информация : Audio Coding 3 Расширение режима : CM (complete main) Параметр Endianness формата : Big Идентификатор кодека : A_AC3 Продолжительность : 2 ч. 0 м. Вид битрейта : Постоянный Битрейт : 448 Кбит/сек Каналы : 6 каналов Расположение каналов : Front: L C R, Side: L R, LFE Частота : 48,0 КГц Битовая глубина : 16 бит Метод сжатия : С потерями Размер потока : 387 Мбайт (14%) Заголовок : АС3 5.1 @ 448 kbps - Dub, BD EUR Язык : Russian Default : Нет Forced : Нет
Аудио #2: Идентификатор : 3 Формат : AC-3 Формат/Информация : Audio Coding 3 Расширение режима : CM (complete main) Параметр Endianness формата : Big Идентификатор кодека : A_AC3 Продолжительность : 2 ч. 0 м. Вид битрейта : Постоянный Битрейт : 448 Кбит/сек Каналы : 6 каналов Расположение каналов : Front: L C R, Side: L R, LFE Частота : 48,0 КГц Битовая глубина : 16 бит Метод сжатия : С потерями Размер потока : 387 Мбайт (14%) Заголовок : АС3 5.1 @ 448 kbps - Original Язык : English Default : Нет Forced : Нет

Программа скачать бесплатно видео монтаж
Лара крофт скачать mp4 торрент
Смотреть приколы онлайн бесплатно видео про детей
Онлайн видео гонки на тракторах смотреть бесплатно
Электронное портфолио воспитателя детского сада скачать бесплатно